#TITLE:400 BPM Speedcore;
#SUBTITLE:Stepped by THE.BERZERKER;
#ARTIST:Lord of Oblivion;
#TITLETRANSLIT:;
#SUBTITLETRANSLIT:;
#ARTISTTRANSLIT:;
#CREDIT:;
#BANNER:Speedcore_banner.PNG;
#BACKGROUND:Speedcore_bg.PNG;
#LYRICSPATH:;
#CDTITLE:;
#MUSIC:Speedcore.mp3;
#OFFSET:0.000;
#SAMPLESTART:39.675;
#SAMPLELENGTH:12.000;
#SELECTABLE:YES;
#BPMS:0.000=200.000,32.000=100.000,60.500=50.000,61.750=200.000,133.750=100.000,134.750=200.001,157.750=50.000,169.500=200.001;
#STOPS:;
#BGCHANGES:;
// cache tags:
#FIRSTBEAT:0.000;
#LASTBEAT:223.000;
#SONGFILENAME:Songs/Music V.I.P ^_^/400 BPM Speedcore - Lord of Oblivion/Speedcore.sm;
#HASMUSIC:1;
#HASBANNER:1;
#MUSICLENGTH:87.588;
// end cache tags

//---------------dance-single - ----------------
#NOTES:
     dance-single:
     :
     Challenge:
     15:
     1.000,1.000,1.000,0.034,1.000,687.000,278.000,3.000,0.000,1.000:
1001
0000
0000
0000
0000
0000
0000
0000
0000
0000
0000
0000
0000
0000
0000
0000
0001
0010
0100
1000
0001
0010
0100
1000
0001
0010
0100
1000
0001
0010
0100
1000
,
0001
0000
1010
0000
0110
0000
0011
0000
1100
0000
0110
0000
1010
0000
1001
0010
,
0101
0000
0110
0000
0011
0000
0110
0000
1100
0000
1001
0000
0101
0000
1100
0001
,
1010
0000
0101
0000
0110
0000
1010
0000
1001
0000
0011
0000
0110
0000
1100
0010
,
0101
0000
0000
0000
0000
0000
0000
0000
1010
0000
0000
0000
0000
0000
0000
0000
0101
0000
0000
0000
0000
0000
0000
0000
0001
0010
1000
0100
0001
0010
1000
0100
,
0001
0000
0110
0000
1100
0000
0101
0000
1001
0000
0110
0000
0011
0000
1010
0100
,
0011
0000
0110
0000
1010
0000
1001
0000
0011
0000
1010
0000
0110
0000
0011
1000
,
0110
0000
0101
0000
0110
0000
1010
0000
0101
0000
1001
0000
1010
0000
0110
1000
,
0101
0000
0000
0110
0000
0000
1001
0000
0000
0011
0000
0000
0110
0000
0000
1100
,
0000
0000
0000
0000
0101
0000
0000
0000
0000
0000
0110
0000
0000
0000
0000
0010
1001
0000
0000
0000
0000
0000
1010
0000
0000
0000
0000
0000
0011
0000
0000
0000
,
0000
0000
1001
0000
0000
0000
0000
0010
0101
0000
0000
0000
0000
0000
0110
0000
0000
0000
0000
0100
1010
0000
0000
0000
0000
0010
1001
0000
0000
0000
0000
1000
,
0101
0000
0000
0000
0000
0000
0110
0000
0000
0000
0000
0000
1100
0000
0000
0000
0000
0000
0110
0000
0000
0000
0000
0100
0011
0000
0000
0000
0000
0000
1001
0000
,
0000
0000
0000
0000
0101
0000
0000
0000
0000
0000
0110
0000
0000
0000
0000
0100
1010
0000
0000
0000
0000
0000
0011
0000
0000
0000
0000
0000
0110
0000
0000
0000
,
0000
0000
1100
0000
0000
0000
0000
0010
0101
0000
0000
0000
0000
0000
0110
0000
0000
0000
0000
0100
1010
0000
0000
0000
0000
0100
0011
0000
0000
0000
0000
0010
,
1001
0000
0000
0000
0000
1000
0101
0000
0000
0000
0000
0001
1010
0000
0000
0000
0000
1000
0110
0000
0000
0000
0000
0100
0011
0000
0000
0000
0000
0001
0110
0000
,
0000
0000
0000
0010
1100
0000
0000
0000
0000
0000
0000
0000
0000
0000
0001
1000
0010
0100
0001
1000
0010
0100
0001
1000
0010
0100
0001
1000
0010
0100
0001
0000
,
0000
1010
0000
0101
0000
0110
0000
1001
0000
0000
0000
1001
0000
0000
0000
0101
,
0000
1100
0010
0101
0000
1100
0000
1001
0000
0110
0000
1001
0000
0110
0000
1010
,
0000
0110
0000
0011
0000
1010
0000
1001
0000
0000
0000
1001
0000
0000
0000
0101
,
0000
0110
1000
0101
0000
1001
0000
1100
0000
0011
0000
1100
0000
0011
0000
1001
,
0000
0000
0001
0010
0100
1000
0100
0010
0001
0010
0100
1000
0100
0010
0001
0000
0000
0000
0110
0000
0000
0000
1010
0000
0000
0000
0101
0000
0000
0000
0110
0000
,
0000
1010
0000
1001
0000
0101
1000
0110
0000
1010
0000
0011
0000
1100
0000
0101
,
0000
0000
1001
0000
0000
0000
0110
0000
0000
0000
0101
0000
0010
0000
1100
0000
0000
0000
1000
0100
0010
0001
0000
0000
0000
0000
0001
0010
0100
1000
0000
0000
,
0000
0000
0010
0100
0010
0100
0000
0000
0000
0000
0001
1000
0001
1000
0000
0000
0000
0000
1010
0000
0000
0000
0110
0000
0000
0000
1100
0000
0000
0000
1001
0000
,
0000
0110
0000
0011
0000
1010
0100
0011
0000
1001
0000
0101
0000
0110
0000
1010
,
0000
1001
0000
0101
0000
0011
0100
1010
0000
0000
0000
1010
0000
0000
0000
1100
,
0000
0000
0000
1001
0000
0000
0000
1100
0000
0000
0000
0101
0000
0000
0000
0110
,
0000
0000
0000
0011
0000
0000
0000
0110
0000
0101
0000
1010
0000
0110
0000
1001
,
0000
0011
0000
0110
0000
1010
0000
0101
0000
1001
0000
0110
0000
0011
0000
1100
,
0000
0110
0000
1010
0000
0110
0000
0001
0010
0100
1000
0001
0010
0100
1000
0001
,
0010
0100
1000
0001
0010
0100
1000
0001
0010
0100
1000
0001
0010
0100
1000
0001
,
0010
0000
0100
0000
1000
0000
0001
0000
0010
0000
0100
0000
1000
0000
0001
0010
0100
1000
0001
0010
0100
1000
0001
0010
0100
1000
0001
0010
0100
1000
0001
0010
,
0100
1000
0001
0010
0100
1000
0001
0010
0100
1000
0001
0010
0100
1000
0001
0010
0100
1000
0001
0010
0100
1000
0001
0010
0100
1000
0001
0010
0100
1000
0001
0010
,
0100
1000
0001
0010
0100
1000
0001
0010
0100
1000
0001
0010
0100
1000
0001
0000
0000
0000
0000
0000
0000
0000
1001
0000
0000
0000
0011
0000
0000
0000
0110
0000
,
0000
0000
0000
1001
0000
0011
0000
0110
0000
1100
0000
0101
0000
0110
0000
1010
,
0000
0011
1000
0110
0000
1010
0000
0011
0000
1001
0000
1010
0000
0110
0000
0011
,
0000
0000
1001
0000
0100
0000
1010
0000
0000
0000
0000
0000
0000
0000
0001
1000
0010
0100
0001
1000
0010
0100
0001
1000
0010
0100
0001
1000
0010
0100
0001
1000
,
0010
0100
0001
1000
0100
0001
0010
0100
1000
0001
0010
0100
1000
0001
0010
0100
1000
0001
0010
0100
1000
0001
0010
0100
1000
0001
0010
0100
1000
0001
0010
0100
,
1000
0100
0010
0001
1000
0100
0010
0001
1000
0100
0010
0001
1000
0100
0010
0001
1000
0100
0010
0001
1000
0100
0010
0001
0010
1000
0100
0001
0010
1000
0100
0001
,
0010
1000
0100
0001
0010
1000
0100
0001
0010
1000
0100
0001
0010
0100
1001
0000
0000
0000
0000
0000
0101
0000
0000
0000
0000
0000
0110
0000
0000
0000
0000
0000
,
1010
0000
0000
0000
0000
0000
1001
0000
0000
0000
0000
0000
0011
0000
0000
0000
0000
0000
1100
0000
0000
0000
0000
0000
0101
0000
0000
0110
0000
0000
1001
0000
,
0000
0000
0101
0000
0000
0110
0000
0000
1001
0000
0000
1100
0000
0000
0110
0000
,
0000
0000
1010
0000
0000
0000
0000
0000
1001
0000
0000
0000
0001
0010
0100
1000
0001
0010
0100
1000
0001
0010
0100
1000
0001
0010
0100
1000
0001
0010
0100
1000
,
0001
0010
0100
1000
0001
0010
0100
1000
0001
0010
0100
1000
0001
0000
0000
0000
0110
0000
0000
0000
1010
0000
0000
0000
0101
0000
0000
0000
1001
0000
0000
0000
,
0110
0000
0011
0000
1010
0001
0110
0000
0101
0000
1100
0000
0110
0000
1001
0000
,
0011
0000
0110
0000
1010
0000
0101
1000
0110
0000
1010
0000
0110
0000
0011
0000
,
1001
0000
1100
0000
0110
1000
0101
0000
1100
0000
1010
0000
0110
0000
1001
0000
,
0101
0000
0110
0000
1100
0010
0101
0000
0011
0000
1010
0000
0110
0000
0011
0000
,
1001
0000
0000
0000
1010
0000
0000
0000
0011
0000
0100
0000
1001
0000
0000
0000
1010
0000
0000
0000
0001
0010
1000
0100
0001
0010
1000
0100
0001
0010
1000
0100
,
0001
0010
1000
0100
0001
0010
1000
0100
0001
0010
1000
0100
0001
0000
0000
0000
0101
0000
0000
0000
0110
0000
0000
0000
1010
0000
0000
0000
1001
0000
0000
0000
,
0000
0000
1001
0000
0000
0000
0101
0000
0110
0001
1010
0000
0110
0000
1010
0000
,
0101
1010
0101
0110
1010
0011
0110
1001
,
0000
0000
1001
0000
0000
0000
0011
0000
0011
0100
1010
0000
0101
0000
1100
0000
,
0011
0000
0000
0000
1100
0000
0000
0000
0011
0000
0000
0000
0001
0010
0100
1000
0001
0010
0100
1000
0001
0010
0100
1000
0001
0010
0100
1000
0001
0010
0100
1000
,
0001
0010
0100
1000
0001
0010
0100
1000
0001
0010
0100
1000
0001
0010
0100
1000
0001
0010
0100
1000
0001
0010
0100
1000
0001
0010
0100
1000
0222
0000
0000
0000
,
0000
0000
0000
0333
;
